Gifted (2017) (1080p Bluray x265 HEVC 10bit AAC 5.1 RZeroX)

  • Category Movies
  • Type HEVC/x265
  • Language English
  • Total size 4.3 GB
  • Uploaded By RZeroX
  • Downloads 41
  • Last checked 49 minutes ago
  • Date uploaded 5 days ago
  • Seeders 2
  • Leechers 0

Gifted

Drama

Frank Adler (Chris Evans) is a single man raising a child prodigy - his spirited young niece Mary (Mckenna Grace) in a coastal town in Florida. Frank's plans for a normal school life for Mary are foiled when the seven-year-old's mathematical abilities come to the attention of Frank's formidable mother Evelyn (Lindsay Duncan) whose plans for her granddaughter threaten to separate Frank and Mary. Octavia Spencer plays Roberta, Frank and Mary's landlady and best friend. Jenny Slate is Mary's teacher, Bonnie, a young woman whose concern for her student develops into a connection with her uncle as well.

Infohash : B87EB89C5C75CFBE28298D0802431D4584B01B14



Media Information

Code:

GeneralFormat                         : Matroska
Format version                 : Version 4 / Version 2
File size                      : 3.38 GiB
Duration                       : 1 h 41 min
Overall bit rate               : 4 788 kb/s
Encoded date                   : UTC 2017-07-16 17:42:44
Writing application            : mkvmerge v13.0.0 ('The Juggler') 64bit
Writing library                : libebml v1.3.4 + libmatroska v1.4.5

Video
ID                             : 1
Format                         : HEVC
Format/Info                    : High Efficiency Video Coding
Format profile                 : Main [email protected]@Main
Codec ID                       : V_MPEGH/ISO/HEVC
Duration                       : 1 h 41 min
Bit rate                       : 4 287 kb/s
Width                          : 1 920 pixels
Height                         : 800 pixels
Display aspect ratio           : 2.40:1
Frame rate mode                : Constant
Frame rate                     : 23.976 (24000/1001) FPS
Color space                    : YUV
Chroma subsampling             : 4:2:0
Bit depth                      : 10 bits
Bits/(Pixel*Frame)             : 0.116
Stream size                    : 3.03 GiB (90%)
Writing library                : x265 2.5+2-18fa144d453e:[Windows][GCC 7.1.0][64 bit] 10bit
Encoding settings              : cpuid=1173503 / frame-threads=3 / numa-pools=12 / wpp / no-pmode / no-pme / no-psnr / no-ssim / log-level=2 / input-csp=1 / input-res=1920x800 / interlace=0 / total-frames=145537 / level-idc=0 / high-tier=1 / uhd-bd=0 / ref=4 / no-allow-non-conformance / no-repeat-headers / annexb / no-aud / no-hrd / info / hash=0 / no-temporal-layers / open-gop / min-keyint=23 / keyint=250 / bframes=8 / b-adapt=2 / b-pyramid / bframe-bias=0 / rc-lookahead=25 / lookahead-slices=4 / scenecut=40 / no-intra-refresh / ctu=64 / min-cu-size=8 / no-rect / no-amp / max-tu-size=32 / tu-inter-depth=1 / tu-intra-depth=1 / limit-tu=0 / rdoq-level=2 / dynamic-rd=0.00 / no-ssim-rd / signhide / no-tskip / nr-intra=0 / nr-inter=0 / no-constrained-intra / strong-intra-smoothing / max-merge=3 / limit-refs=3 / limit-modes / me=3 / subme=3 / merange=57 / temporal-mvp / weightp / weightb / no-analyze-src-pics / deblock=-1:-1 / sao / no-sao-non-deblock / rd=4 / no-early-skip / rskip / no-fast-intra / no-tskip-fast / no-cu-lossless / no-b-intra / rdpenalty=0 / psy-rd=2.00 / psy-rdoq=1.00 / no-rd-refine / analysis-reuse-mode=0 / no-lossless / cbqpoffs=0 / crqpoffs=0 / rc=crf / crf=20.0 / qcomp=0.60 / qpstep=4 / stats-write=0 / stats-read=0 / ipratio=1.40 / pbratio=1.30 / aq-mode=3 / aq-strength=1.00 / cutree / zone-count=0 / no-strict-cbr / qg-size=32 / no-rc-grain / qpmax=69 / qpmin=0 / no-const-vbv / sar=0 / overscan=0 / videoformat=5 / range=0 / colorprim=2 / transfer=2 / colormatrix=2 / chromaloc=0 / display-window=0 / max-cll=0,0 / min-luma=0 / max-luma=1023 / log2-max-poc-lsb=8 / vui-timing-info / vui-hrd-info / slices=1 / opt-qp-pps / opt-ref-list-length-pps / no-multi-pass-opt-rps / scenecut-bias=0.00 / no-opt-cu-delta-qp / aq-motion / no-hdr / no-hdr-opt / no-dhdr10-opt / analysis-reuse-level=5 / scale-factor=0 / refine-intra=0 / refine-inter=0 / refine-mv=0 / no-limit-sao / ctu-info=0
Default                        : Yes
Forced                         : No

Audio
ID                             : 2
Format                         : AAC
Format/Info                    : Advanced Audio Codec
Format profile                 : LC
Codec ID                       : A_AAC
Duration                       : 1 h 41 min
Bit rate                       : 445 kb/s
Channel(s)                     : 6 channels
Channel positions              : Front: L C R, Side: L R, LFE
Sampling rate                  : 48.0 kHz
Frame rate                     : 46.875 FPS (1024 spf)
Compression mode               : Lossy
Delay relative to video        : 20 ms
Stream size                    : 322 MiB (9%)
Language                       : English
Default                        : No
Forced                         : No

Text #1
ID                             : 3
Format                         : PGS
Muxing mode                    : zlib
Codec ID                       : S_HDMV/PGS
Codec ID/Info                  : Picture based subtitle format used on BDs/HD-DVDs
Duration                       : 1 h 40 min
Bit rate                       : 45.2 kb/s
Count of elements              : 3672
Stream size                    : 32.3 MiB (1%)
Language                       : English
Default                        : No
Forced                         : No

Text #2
ID                             : 4
Format                         : PGS
Muxing mode                    : zlib
Codec ID                       : S_HDMV/PGS
Codec ID/Info                  : Picture based subtitle format used on BDs/HD-DVDs
Duration                       : 1 h 40 min
Bit rate                       : 38.6 kb/s
Count of elements              : 3084
Stream size                    : 27.7 MiB (1%)
Language                       : Spanish
Default                        : No
Forced                         : No

Text #3
ID                             : 5
Format                         : PGS
Muxing mode                    : zlib
Codec ID                       : S_HDMV/PGS
Codec ID/Info                  : Picture based subtitle format used on BDs/HD-DVDs
Duration                       : 1 h 40 min
Bit rate                       : 39.1 kb/s
Count of elements              : 3078
Stream size                    : 28.0 MiB (1%)
Language                       : French
Default                        : No
Forced                         : No

Text #4
ID                             : 6
Format                         : PGS
Muxing mode                    : zlib
Codec ID                       : S_HDMV/PGS
Codec ID/Info                  : Picture based subtitle format used on BDs/HD-DVDs
Duration                       : 1 h 40 min
Bit rate                       : 112 b/s
Count of elements              : 10
Stream size                    : 82.2 KiB (0%)
Language                       : French
Default                        : No
Forced                         : No

Menu
00:00:00.000                   : en:00:00:00.000
00:04:36.318                   : en:00:04:36.318
00:07:49.302                   : en:00:07:49.302
00:12:55.525                   : en:00:12:55.525
00:18:50.004                   : en:00:18:50.004
00:22:23.008                   : en:00:22:23.008
00:29:13.085                   : en:00:29:13.085
00:33:18.830                   : en:00:33:18.830
00:37:56.399                   : en:00:37:56.399
00:42:57.825                   : en:00:42:57.825
00:45:34.357                   : en:00:45:34.357
00:48:06.675                   : en:00:48:06.675
00:50:58.806                   : en:00:50:58.806
00:54:31.685                   : en:00:54:31.685
00:59:05.959                   : en:00:59:05.959
01:03:52.787                   : en:01:03:52.787
01:08:44.787                   : en:01:08:44.787
01:14:52.279                   : en:01:14:52.279
01:19:29.348                   : en:01:19:29.348
01:23:44.770                   : en:01:23:44.770
01:26:54.751                   : en:01:26:54.751
01:29:38.832                   : en:01:29:38.832
01:32:49.272                   : en:01:32:49.272
01:35:36.648                   : en:01:35:36.648



Source Information

Code:

Release : Gifted.2017.1080p.BluRay.AVC.DTS-HD.MA.5.1-FGT
Complete name : Gifted.mkv
File size : 26.2 GiB
Duration : 1 h 41 min
Overall bit rate mode : Variable
Overall bit rate : 36.6 Mb/s  


Files:

Gifted (2017) (1080p Bluray x265 HEVC 10bit AAC 5.1 RZeroX) Featurettes
  • An Accomplished Cast.mkv (34.2 MB)
  • Cookies.mkv (33.5 MB)
  • Do You Blame Yourself.mkv (85.4 MB)
  • Gifted HBO First Look.mkv (214.9 MB)
  • Inside The Equation.mkv (23.9 MB)
  • Marc's Method.mkv (27.2 MB)
  • On Location Gifted.mkv (48.4 MB)
  • Rarer Than Radium.mkv (156.2 MB)
  • Story.mkv (34.0 MB)
  • Take A Hint.mkv (141.5 MB)
  • Trailer.mkv (33.1 MB)
  • Unresolved Issues.mkv (67.9 MB)
  • Gifted (2017) (1080p Bluray x265 HEVC 10bit AAC 5.1 RZeroX).mkv (3.4 GB)

There are currently no comments. Feel free to leave one :)

Code:

  • udp://tracker.leechers-paradise.org:6969/announce