Ghost.In.The.Shell.2017.720p.BluRay.x264.AC3-MeGUiL

  • Category Movies
  • Type h.264/x264
  • Language English
  • Total size 840.9 MB
  • Uploaded By meguil
  • Downloads 410
  • Last checked 36 minutes ago
  • Date uploaded 5 days ago
  • Seeders 13
  • Leechers 12

Ghost in the Shell

ActionDramaScience Fiction

Based on the internationally-acclaimed sci-fi property, GHOST IN THE SHELL follows the Major, a special ops, one-of-a-kind human-cyborg hybrid, who leads the elite task force Section 9. Devoted to stopping the most dangerous criminals and extremists, Section 9 is faced with an enemy whose singular goal is to wipe out Hanka Robotic’s advancements in cyber technology.

Infohash : 3A2877709E6278C0A1F43E8DC0F4110945062BA1



Release Title: Ghost.In.The.Shell.2017.720p.Bluray.x264.AC3-MeGUiL
Directed By: Rupert Sanders
Genre: Action, Crime, Drama
Language: English
Subtitles: English
Total Size: 840 MB
Duration: 01:46:56
Encoder: MeGUiL

Storyline: In the near future, Major Motoko Kusanagi (Scarlett Johansson) is the first of her kind: A human saved from a terrible terrorist attack, who is cyber-enhanced to be a perfect soldier devoted to stopping the world's most dangerous criminals. When terrorism reaches a new level that includes the ability to hack into people's minds and control them, Major Kusanagi is uniquely qualified to stop it. As she prepares to face a new enemy, Major Kusanagi discovers that she has been lied to: her life was not saved, it was stolen. She will stop at nothing to recover her past, find out who did this to her and stop them before they do it to others.

Cast:
Scarlett Johansson ... Major
Pilou Asbæk ... Batou
Takeshi Kitano ... Aramaki (as 'Beat' Takeshi Kitano)
Juliette Binoche ... Dr. Ouelet
Michael Pitt ... Kuze (as Michael Carmen Pitt)
Chin Han ... Togusa
Danusia Samal ... Ladriya
Lasarus Ratuere ... Ishikawa
Yutaka Izumihara ... Saito
Tawanda Manyimo ... Borma

Video Specs:
Format/Info                              : Advanced Video Codec
Format profile                           : [email protected]
Bit rate                                 : 900 kb/s
Width                                    : 1 280 pixels
Height                                   : 714 pixels
Display aspect ratio                     : 16:9
Frame rate mode                          : Constant
Frame rate                               : 23.976
Chroma subsampling                       : 4:2:0
Bit depth                                : 8 bits
Stream size                              : 688 MiB (82%)
Writing library                          : x264 core 148

Audio Specs: English
Format/Info                              : Audio Coding 3 (AC-3)
Bit rate                                 : 192 kb/s
Channel(s)                               : 2 channels
Channel positions                        : Front: L R
Sampling rate                            : 48.0 kHz
Stream size                              : 147.0 MiB (18%)
Language                                 : English

Compatable with PS3, Most Set Top Media Players and Most Media Ready HDTV's.

IMDB: http://www.imdb.com/title/tt1219827/
IMDb Rating: 6.6/10 (81,582 users)

Trackers:

Code:


udp://tracker.coppersurfer.tk:6969/announce
udp://tracker.pirateparty.gr:6969/announce
udp://tracker.zer0day.to:1337/announce
udp://tracker.mgtracker.org:2710/announce
udp://eddie4.nl:6969/announce
udp://tracker.leechers-paradise.org:6969/announce



Greets: 1337x, All Of Kingdom, ExtraTorrent, H33T, ThePirateBay, KickassTorrents, And Many More.  ;)

Screens:






Files:

Ghost.In.The.Shell.2017.720p.BluRay.x264.AC3-MeGUiL Screenshots
  • Screenshots (5).png (1.4 MB)
  • Screenshots (2).png (840.9 KB)
  • Screenshots (1).png (728.8 KB)
  • Screenshots (4).png (728.8 KB)
  • Screenshots (3).png (645.7 KB)
Subtitles
  • Ghost.In.The.Shell.2017.720p.BluRay.x264.AC3-MeGUiL-English.srt (57.4 KB)
  • Ghost.In.The.Shell.2017.720p.BluRay.x264.AC3-MeGUiL.mkv (836.6 MB)
  • Media Info.txt (3.7 KB)
  • Join us.txt (0.2 KB)

There are currently no comments. Feel free to leave one :)

Code:

  • udp://tracker.coppersurfer.tk:6969/announce
  • udp://tracker.pirateparty.gr:6969/announce
  • udp://tracker.zer0day.to:1337/announce
  • udp://tracker.mgtracker.org:2710/announce
  • udp://eddie4.nl:6969/announce
  • udp://tracker.leechers-paradise.org:6969/announce