Spider-Man Homecoming (2017) 720p CAM x264 Dual Audio [Hindi - En...

  • Category Movies
  • Type Dubs/Dual Audio
  • Language Hindi
  • Total size 861.0 MB
  • Uploaded By link2downlod
  • Downloads 16237
  • Last checked 5 days ago
  • Date uploaded 1 week ago
  • Seeders 465
  • Leechers 95

Spider-Man: Homecoming

ActionAdventureScience Fiction

Following the events of Captain America: Civil War, Peter Parker, with the help of his mentor Tony Stark, tries to balance his life as an ordinary high school student in Queens, New York City, with fighting crime as his superhero alter ego Spider-Man as a new threat, the Vulture, emerges.

Infohash : D7F61FE8BBC6B6FDB62048119CD855DF0921DBB5








Format : Matroska
Format version : Version 4 / Version 2
File size : 861 MiB
Duration : 2 h 6 min
Overall bit rate mode : Variable
Overall bit rate : 954 kb/s
Encoded date : UTC 2017-07-13 06:00:01
Writing application : mkvmerge v7.0.0 ('Where We Going') 64bit built on Jun 9 2014 15:16:27
Writing library : libebml v1.3.0 + libmatroska v1.4.1

Video
ID : 1
Format : AVC
Format/Info : Advanced Video Codec
Format profile : [email protected]
Format settings, CABAC : Yes
Format settings, ReFrames : 4 frames
Codec ID : V_MPEG4/ISO/AVC
Duration : 2 h 6 min
Bit rate : 756 kb/s
Width : 1 280 pixels
Height : 560 pixels
Display aspect ratio : 2.25:1
Frame rate mode : Constant
Frame rate : 29.970 (30000/1001) FPS
Color space : YUV
Chroma subsampling : 4:2:0
Bit depth : 8 bits
Scan type : Progressive
Bits/(Pixel*Frame) : 0.035
Stream size : 683 MiB (79%)
Writing library : x264 core 148 r2744 b97ae06
Default : Yes
Forced : No

Audio #1
ID : 2
Format : MPEG Audio
Format version : Version 1
Format profile : Layer 3
Mode : Joint stereo
Mode extension : MS Stereo
Codec ID : A_MPEG/L3
Codec ID/Hint : MP3
Duration : 2 h 6 min
Bit rate mode : Variable
Bit rate : 96.0 kb/s
Channel(s) : 2 channels
Sampling rate : 44.1 kHz
Frame rate : 38.281 FPS (1152 spf)
Compression mode : Lossy
Stream size : 90.5 MiB (11%)
Writing library : LAME3.99r
Encoding settings : -m j -V 4 -q 3 -lowpass 15.1 --abr 96
Language : Hindi
Default : Yes
Forced : No

Audio #2
ID : 3
Format : MPEG Audio
Format version : Version 1
Format profile : Layer 3
Mode : Joint stereo
Mode extension : MS Stereo
Codec ID : A_MPEG/L3
Codec ID/Hint : MP3
Duration : 2 h 6 min
Bit rate mode : Variable
Bit rate : 96.0 kb/s
Channel(s) : 2 channels
Sampling rate : 44.1 kHz
Frame rate : 38.281 FPS (1152 spf)
Compression mode : Lossy
Stream size : 85.2 MiB (10%)
Writing library : LAME3.99r
Encoding settings : -m j -V 4 -q 3 -lowpass 15.1 --abr 96
Language : English
Default : No
Forced : No










Files:

  • Spider-Man Homecoming (2017) 720p PreDvd x264 Dual Audio [Hindi - English].mkv (861.0 MB)

Comments

Code:

  • udp://9.rarbg.me:2750/announce
  • udp://explodie.org:6969/announce
  • udp://9.rarbg.com:2750/announce
  • udp://tracker.opentrackr.org:1337/announce
  • udp://shadowshq.yi.org:6969/announce
  • udp://p4p.arenabg.com:1337/announce
  • udp://ipv4.tracker.harry.lu:80/announce
  • udp://tracker.leechers-paradise.org:6969/announce
  • udp://tracker.eddie4.nl:6969/announce
  • udp://shadowshq.eddie4.nl:6969/announce
  • udp://tracker.coppersurfer.tk:80/announce
  • udp://tracker.coppersurfer.tk:6969/announce
  • udp://tracker.zer0day.to:1337/announce
  • udp://9.rarbg.to:2750/announce
  • udp://p4p.arenabg.ch:1337/announce
  • http://ipv4.tracker.harry.lu/announce
  • http://ipv4.tracker.harry.lu:80/announce
  • http://opentracker-milanesi.rhcloud.com/announce
  • http://t.nyaatracker.com/announce
  • http://tracker.devil-torrents.pl:80/announce
  • http://tracker.devil-torrents.pl/announce
  • http://open.kickasstracker.com/announce
  • http://opentracker-milanesi.rhcloud.com:80/announce
  • http://open.kickasstracker.com:443/announce
  • http://opentracker-milanesi.rhcloud.com:443/announce
  • http://t.nyaatracker.com:80/announce
  • udp://9.rarbg.me:2750/announce
  • udp://9.rarbg.com:2750/announce
  • udp://9.rarbg.to:2750/announce